• Administrator
  •  
    Przypomnienie. Przy zakładaniu tematu obowiązuje w opisie tematu podawanie kategorii filmu, gry, muzyki, ebooka[sensacyjny, strategia, jazz, informatyka].
     

Inheritance (2020)

Thriller

Motylek
Posty: 174
Rejestracja: 18 maja 2020, 16:14
Reputacja: 0

Inheritance (2020)

Post autor: Motylek » 22 maja 2020, 19:46

Inheritance (2020) 1080p.WEB-DL.DD2.0.H264-FGT  

     3.89 GB

Obrazek
gatunek Thriller
produkcja USA
 
Lily Collins w roli dziedziczki fortuny, która po śmierci ojca otrzymuje między innymi klucz do ukrytej w lesie podziemnej budowli. Odnajduje w niej uwięzionego mężczyznę (Simon Pegg), którego historia może doprowadzić do upadku całą rodzinę. 

screen

info
Spoiler
Show

Video
ID : 1
Format : AVC
Format/Info : Advanced Video Codec
Format profile : [email protected]
Format settings : CABAC / 5 Ref Frames
Format settings, CABAC : Yes
Format settings, Reference frames : 5 frames
Codec ID : V_MPEG4/ISO/AVC
Duration : 1 h 50 min
Bit rate : 4 629 kb/s
Width : 1 920 pixels
Height : 804 pixels
Display aspect ratio : 2.40:1
Frame rate mode : Constant
Frame rate : 24.000 FPS
Color space : YUV
Chroma subsampling : 4:2:0
Bit depth : 8 bits
Scan type : Progressive
Bits/(Pixel*Frame) : 0.125
Stream size : 3.59 GiB (92%)
Title : Inheritance.2020.1080p.WEB-DL.DD2.0.H264-FGT
Language : English
Default : Yes
Forced : No
Color range : Limited
Color primaries : BT.709
Transfer characteristics : BT.709
Matrix coefficients : BT.709

Audio
ID : 2
Format : AC-3
Format/Info : Audio Coding 3
Commercial name : Dolby Digital
Codec ID : A_AC3
Duration : 1 h 50 min
Bit rate mode : Constant
Bit rate : 384 kb/s
Channel(s) : 2 channels
Channel layout : L R
Sampling rate : 48.0 kHz
Frame rate : 31.250 FPS (1536 SPF)
Bit depth : 16 bits
Compression mode : Lossy
Stream size : 305 MiB (8%)
Title : Inheritance.2020.1080p.WEB-DL.DD2.0.H264-FGT
Language : English
Service kind : Complete Main
Default : Yes
Forced : No

Text
ID : 3
Format : UTF-8
Codec ID : S_TEXT/UTF8
Codec ID/Info : UTF-8 Plain Text
Duration : 1 h 42 min
Bit rate : 53 b/s
Count of elements : 1380
Stream size : 39.9 KiB (0%)
Language : English
Default : Yes
Forced : No

download

Kod: Zaznacz cały

https://rapidu.net/7264188493/Inheritance.2020.1080p.WEB-DL.DD2.0.H264-FGT.mkv

https://lunaticfiles.com/3bxkm6n0mscg/Inheritance.2020.1080p.WEB-DL.DD2.0.H264-FGT.mkv.html

http://wrzucajpliki.pl/bh0g2z0ic707/Inheritance.2020.1080p.WEB-DL.DD2.0.H264-FGT.mkv

https://fileshark.pl/pobierz/47134013/95a47/inheritance-2020-1080p-web-dl-dd2-0-h264-fgt-mkv

https://ddownload.com/5mgy2iw3rncd
https://ddownload.com/mwksqdm5empq




ODPOWIEDZ